How To Cook Wagyu Beef, Tribune Obituaries Illinois, Tilt And Scan, Sailfish Os Supported Devices, Land Registration Office Near Me, Ffxiv Mythrite Ingot, " />
Get Your FREE Special Report:
"Emotional Manipulators:
How to Identify Them and
Avoid Their Influence."

Sign up below.

First Name
Email Address

We'll never share your information with anyone.

starlight express he whistled at me

I need someone to whistle at me, Gonna disconnect you, Electra-C.B, C.B, Dinah's gone and made a disconnection! He Whistled At Me: 7. "He looked in my direction," she sang looked over at her imaginary engine, "He whistled at me, ("woo-woo!") I need someone to whistle at me, Gonna disconnect you, Electra- C.B, C.B, Dinah's gone and made a disconnection! Later productions have used additional songs with lyrics by Don Black, David Yazbek, Nick Coler and Lauren Aquilina, and with music by Andrew Lloyd Webber's son, Alistair.. Famously, the actors of the musical perform wearing roller skates. He Whistled At Me; The Race; There's Me; Poppa's Blues; Belle The Sleeping Car; Starlight Express; The Rap; U.N.C.O.U.P.L.E.D. Make Up My Heart It was recorded live in the theatre over three performances in April 1984 and subsequently at Audio International Studios, London." Whoo-whoo, whoo-whoo - everybody's waiting for their dream train. It's damaging my staus, I dont think he can whistle at me! He'll whistle at me, I'm gonna hitch him to me. He lacks the aparatus, Why do you never whistle at me? Pumping Iron: 12. Some day soon he'll whistle at me, That's how I'll recognise him And maybe I will whistle at him - That should surprise him. Hitching and Switching Differences to other similar releases: Starlight Express - The Original Cast (r8935363) On CD 'Made in France by PMDC', different catalog number Starlight Express - The Original Cast (r1250896) On CD 'Made in W. … I Am The Starlight: 8. I'm gonna hitch him to me. C.B, C.B, You gotta help me … Soundtrack listing. At the end of "Hitching and Switching", both Rusty and Pearl are left without race partners. PEARL AND COACHES Whoo-whoo, whoo-whoo - nobody can do it like a steam train. However in the original London production, the decision was made to use the melody as a solo for Pearl not Rusty. 8. Pearl and Coaches: Whoo-whoo, whoo-whoo - nobody can do it like a steam train. triggerOnFocusSongPlay.push("commonfunc.setLyricsHeight(); utility.playSongFromServer({ids:1060636,play_song:0,action:'tracklist',source:1,source_id:1,objtype:1,premium_content:0});");setTimeout(function(){insertRelatedData('relatedSongDetail', '1060636', '0', 'English');},6000);triggerOnFocusSongPlay=[];commonfunc.setLyricsHeight(); utility.playSongFromServer({ids:1060636,play_song:0,action:'tracklist',source:1,source_id:1,objtype:1,premium_content:0}); Gaana is the one-stop solution for all your music needs. For long before I see him. Second part of I am The Starlight and He whistled at me (Reprise) Before downloading Starlight Express He Whistled At Me Videos, Watch new movies online. Automatically playing similar songs. Beginnig to suspect you! The 1980s Broadway production deleted "He Whistled at Me" in favor of "Make Up My Heart," making Pearl's first solo an angst-ridden pop ballad rather than a bouncy, erotic disco number. I have this train I dream about, an engine moved by steam, No problem, I'm a steamer, maybe I could be the engine of your dream, Yes it's close, but it's not like in my dreams. Featured Characters: Starlight Express is a modern rock musical by British composer Andrew Lloyd Webber, featuring lyrics by Richard Stilgoe.The musical became one of the longest running shows in West End history after playing at the Apollo Victoria for over 7,400 performances. In the 1992 "New Starlight Express" revisions to the show, this song was re-worked into a slower ballad version " He'll Whistle At Me " which was then used in subsequent productions including the 2003 US Tour and following UK and world tours. This could me my connection." Preceded By: Pearl had already tentatively agreed to race with Rusty, but she has had doubts following the advice from the other coaches. Gaana offers you free, unlimited access to over 45 million Hindi Songs, Bollywood Music, English MP3 songs, Regional Music & Mirchi Play. He Whistled at Me (Reprise) Dinah-I'm fed up with all this racing, This electric thin i'm chasing, Dosent have that certain something, That a girl expects to hear, He never whistles at me! Get Notified about the latest hits and trends, so that you are always on top of the latest in music when it comes to your friends. TITLE "He Whistled At Me" PERFORMER "Starlight Express (Act Two)" INDEX 00 24:23:69 INDEX 01 24:24:30 TRACK 08 AUDIO TITLE "Race: The Final" PERFORMER "Starlight Express (Act Two)" INDEX 01 26:41:15 TRACK 09 AUDIO TITLE "No Comeback" PERFORMER "Starlight Express (Act Two)" INDEX 01 31:09:44 TRACK 10 AUDIO TITLE "One Rock`n`Roll Too Many" The London show imp… Künstler Starlight Express Titel He whistled at me. Invitation Pearl Whoo-whoo, whoo-whoo - everybody's waiting for their dream train.

How To Cook Wagyu Beef, Tribune Obituaries Illinois, Tilt And Scan, Sailfish Os Supported Devices, Land Registration Office Near Me, Ffxiv Mythrite Ingot,

Leave a Reply

You can use these HTML tags

<a href="" title=""> <abbr title=""> <acronym title=""> <b> <blockquote cite=""> <cite> <code> <del datetime=""> <em> <i> <q cite=""> <s> <strike> <strong>